#TITLE:Gravitation;
#SUBTITLE:Tony;
#ARTIST:SDO China (lv24);
#TITLETRANSLIT:;
#SUBTITLETRANSLIT:;
#ARTISTTRANSLIT:;
#CREDIT:;
#BANNER:;
#BACKGROUND:bg.jpg;
#LYRICSPATH:;
#CDTITLE:;
#MUSIC:sdom1220.ogg;
#OFFSET:-0.020;
#SAMPLESTART:100.060;
#SAMPLELENGTH:11.940;
#SELECTABLE:YES;
#BPMS:0.000=170.000,232.000=85.000,272.000=170.000,320.000=85.000,322.000=170.000,506.000=167.360,512.000=170.000;
#STOPS:;
#BGCHANGES:;
// cache tags:
#FIRSTBEAT:20.000;
#LASTBEAT:575.000;
#SONGFILENAME:Songs/Super Dancer Online/Gravitation lv24/sdom1220.sm;
#HASMUSIC:1;
#HASBANNER:0;
#MUSICLENGTH:222.686;
// end cache tags

//---------------dance-single - ----------------
#NOTES:
     dance-single:
     :
     Hard:
     24:
     1.000,1.000,1.000,0.144,1.000,1738.000,286.000,32.000,0.000,20.000:
0000
0000
0000
0000
,
0000
0000
0000
0000
,
0000
0000
0000
0000
,
0000
0000
0000
0000
,
0000
0000
0000
0000
,
1000
0000
0100
0000
1000
0000
0010
0100
1000
0000
0100
0000
1000
0000
0010
0000
,
0001
0000
0010
0000
0001
0000
1000
0010
0001
0000
0100
0000
0001
0000
1000
0000
,
0100
0000
0010
0000
0100
0000
0001
0010
0100
0000
0010
0000
0100
0000
0001
0000
,
0010
0001
0100
0010
1000
0100
0001
0100
0010
1000
0100
0001
0010
0100
0010
0000
,
1100
0011
0110
1100
0110
0011
0110
1100
,
0011
0110
1100
0110
0002
0000
0000
0000
,
1103
0011
0110
0011
1100
0011
0110
1100
,
0011
0110
0011
0110
2000
0000
0000
0000
,
3011
0110
0110
1100
0110
0011
0110
1100
,
0011
0110
1100
0110
0002
0000
0000
0000
,
1103
0011
0110
0011
1100
0011
0110
1100
,
0011
0000
0110
0000
0011
0000
0110
0000
2100
0010
0001
0010
0100
0010
0001
0010
,
3100
0010
0001
0010
0100
0010
0001
0010
0100
0010
1000
0100
0010
0001
0010
0100
,
0010
0100
0010
0001
0010
0100
0010
0100
1000
0100
0010
0100
0001
0010
0001
0010
,
0100
0010
0100
1000
0010
0100
0010
0001
0010
0100
0010
1000
0010
0100
0010
0001
,
0010
0100
0010
0001
0010
0100
0010
1000
0100
0010
0001
0010
0100
0010
0100
0010
,
0001
0010
0100
0010
0100
1000
0100
0010
0100
0001
0010
0001
0010
0100
0010
0100
,
1000
0010
0100
0010
0001
0010
0100
0010
1000
0010
0100
0001
0010
0100
0010
0001
,
0010
0100
0010
1000
0010
0100
0001
0010
0001
0010
0100
0010
0100
0010
1000
0100
,
0010
0000
0001
0000
0010
0000
0100
0000
0010
0000
0001
0000
0010
0000
0100
0000
0010
0000
0100
0000
1000
0000
0100
0000
0010
0000
0000
0100
0010
0001
0000
0000
,
1010
0101
1010
0101
,
0101
0000
0011
0000
1010
0000
0110
0000
0011
1000
0100
0001
0010
0000
0100
0000
,
0011
0110
0110
0011
,
0101
0000
0010
0000
1010
0000
0100
0000
0011
0100
0010
0100
1000
0100
0010
0001
,
0101
0011
1100
0011
,
0101
0000
0011
0000
1010
0000
0110
0000
0101
1000
0010
0001
1000
0000
0100
0000
,
0101
0101
1100
0101
,
0101
0000
0011
1100
0022
0000
0100
0000
,
0133
1000
0010
0100
0010
0001
0010
0100
0011
0000
0000
0000
0000
0000
0000
0000
,
0010
0100
0010
0001
0010
0100
0010
0001
0010
0100
0010
1000
0100
0010
0001
0010
,
0100
0010
0100
0010
0001
0010
0100
0010
0100
1000
0100
0010
0100
0001
0010
0001
,
0010
0100
0010
0100
1000
0010
0100
0010
0001
0010
0100
0010
1000
0010
0100
0010
,
0001
0010
0100
0010
0001
0010
0100
0010
1000
0100
0010
0001
0010
0100
0010
0100
,
0010
0001
0010
0100
0010
0100
1000
0100
0010
0100
0001
0010
0001
0010
0100
0010
,
0100
1000
0010
0100
0010
0001
0010
0100
0010
1000
0010
0100
0001
0010
0100
0010
,
0001
0010
0100
0010
0100
1000
0010
0100
0001
0010
0001
0010
0100
0010
0100
0010
,
1000
0000
0100
0000
0010
0000
0001
0000
0010
0000
0100
0000
0010
0000
0001
0000
0010
0001
0100
1000
0010
0001
0100
0010
1000
0001
0100
0001
0010
1000
0100
0010
,
1001
0010
0100
0010
0001
0010
0100
0010
0001
0010
0100
0010
1000
0100
0010
0001
,
0010
0100
0010
0100
0010
0001
0010
0100
0010
0100
1000
0100
0010
0100
0001
0010
,
0001
0010
0100
0010
0100
1000
0010
0100
0010
0001
0010
0100
0010
1000
0010
0100
,
0010
0001
0010
0100
0010
0001
0010
0100
0010
1000
0100
0010
0001
0010
0100
0010
,
0100
0010
0001
0010
0100
1000
0100
0010
0100
0001
0010
0001
0010
0100
0010
0100
,
1000
0010
0100
0010
0001
0010
0100
0010
1000
0010
0100
0001
0010
0100
0010
0001
,
0010
0100
0010
0100
1000
0010
0100
0001
0010
0001
0010
0100
0010
0100
0011
1000
,
0100
0000
0010
0000
0101
0000
0010
0000
1100
0000
0010
0000
0001
1000
0010
0100
1000
0010
0001
0010
0100
0010
1000
0001
0100
1000
0010
0001
1100
0000
0000
0000
,
1001
0100
0010
0001
0010
0001
1000
0100
1001
0010
0100
0010
1000
0100
0010
0001
,
0100
0010
0001
0010
0001
0100
0010
0100
1000
0100
1000
0010
0101
1000
0010
0100
,
0001
0010
0100
0010
0001
0100
0001
0010
1100
0000
0000
0000
0110
0000
0000
0000
,
1010
0011
1010
0101
,
1001
0010
0001
0010
0101
0010
0100
1000
0101
0010
0001
0010
0100
0010
0110
1000
,
0100
0010
1100
0010
0101
0010
0100
0010
0001
0010
0101
1000
0101
0010
1000
0010
,
1001
0010
0001
0010
1100
0010
0100
0010
0101
1000
0100
0010
0001
0010
0100
0010
,
0101
0000
0010
0000
0101
0000
0010
0000
1000
0100
0010
0001
0010
0100
1000
0100
,
0011
0000
0000
1000
0110
0000
0000
0001
0110
0000
1100
0000
0011
0000
0000
0000
,
0101
0000
0000
1000
0101
0000
0010
0000
0100
0000
0000
1000
0101
0000
0001
0000
,
0010
0000
0000
0000
0000
0000
0010
0000
0101
0000
0000
0000
0000
0000
0001
0000
0110
0000
0000
0000
0100
0000
0000
0000
0101
0000
0000
0000
0000
0000
1000
0100
,
0011
0000
0000
0100
1010
0000
0010
0000
0011
0000
0000
0100
1001
0000
0010
0000
,
0011
0000
0000
1000
0101
0000
0000
0100
0011
0000
0011
0000
1010
0000
0100
0000
,
0011
0000
0000
1000
0101
0000
0010
0000
0100
0000
0000
1000
0110
0000
0010
0010
,
0101
0000
0000
0000
0000
0000
1000
0000
0110
0000
0000
0000
0010
0000
0000
0000
0001
0000
0000
0000
0000
0000
1000
0000
0101
0000
0000
0000
0000
0000
1000
0100
,
0011
0000
0000
0100
0011
0000
0010
0100
1000
0000
0000
0100
0011
0000
0100
0100
,
1001
0000
0010
0100
2010
0001
0010
0100
0010
0001
0010
0100
0010
0001
0010
0100
,
0010
0000
0001
0000
0010
0000
0100
0000
0010
0000
0001
0000
0010
0000
0100
0000
0010
0001
0010
0100
0010
0001
0010
0100
0010
0001
0010
0100
0010
0001
0010
0100
,
3010
0010
0010
0010
,
0100
0000
0100
0000
0100
0000
0100
0100
,
0010
0010
0010
0010
,
0001
0010
0100
0010
0100
0010
0100
1000
0100
0010
0001
0010
0100
0010
0100
1000
,
1100
0011
0110
1100
0110
0011
0110
1100
,
0011
0110
1100
0110
0002
0000
0000
0000
,
1103
0011
0110
0011
1100
0011
0110
1100
,
0011
0110
0011
0110
2000
0000
0000
0000
,
3011
0110
0110
1100
0110
0011
0110
1100
,
0011
0110
1100
0110
0002
0000
0000
0000
,
1103
0011
0110
0011
1100
0011
0110
1100
,
0011
0000
0110
0000
0011
0000
0110
0000
2100
0010
0001
0010
0100
0010
0001
0010
,
3100
0000
0000
0000
0000
0000
0000
0000
0010
0100
0010
0001
0010
0100
0010
0001
,
0010
0100
0010
1000
0100
0010
0001
0010
0100
0010
0100
0010
0001
0010
0100
0010
,
0100
1000
0100
0010
0100
0001
0010
0001
0010
0100
0010
0100
1000
0010
0100
0010
,
0001
0010
0100
0010
1000
0010
0100
0010
0001
0010
0100
0010
0001
0010
0100
0010
,
1000
0100
0010
0001
0010
0100
0010
0100
0010
0001
0010
0100
0010
0100
1000
0100
,
0010
0100
0001
0010
0001
0010
0100
0010
0100
1000
0010
0100
0010
0001
0010
0100
,
0010
1000
0010
0100
0001
0010
0100
0010
0001
0010
0100
0010
0100
1000
0010
0100
,
0001
0010
0001
0010
0100
0010
0100
0010
1000
0100
0010
0001
0010
0100
0010
0001
,
0010
0001
0100
1000
0010
0001
0100
0010
1000
0001
0100
0001
0010
1000
0100
0010
1001
0000
0010
0000
0100
0000
0010
0000
0001
0000
0010
0000
0100
0000
0010
0000
,
0001
0010
0100
0010
1000
0100
0010
0001
0010
0100
0010
0100
0010
0001
0010
0100
,
0010
0100
1000
0100
0010
0100
0001
0010
0001
0010
0100
0010
0100
1000
0010
0100
,
0010
0001
0010
0100
0010
1000
0010
0100
0010
0001
0010
0100
0010
0001
0010
0100
,
0010
1000
0100
0010
0001
0010
0100
0010
0100
0010
0001
0010
0100
1000
0100
0010
,
0100
0001
0010
0001
0010
0100
0010
0100
1000
0010
0100
0010
0001
0010
0100
0010
,
1000
0010
0100
0001
0010
0100
0010
0001
0010
0100
0010
0100
1000
0010
0100
0001
,
0010
0000
0001
0000
0010
0000
0100
0000
0010
0000
0100
0000
0011
0000
1000
0000
0100
0000
0010
0000
0101
0000
0010
0000
1100
0000
0010
0000
0001
1000
0010
0100
,
1000
0010
0001
0010
0100
0010
1000
0001
0010
1000
0100
0001
0010
0000
0100
0000
0010
0000
0001
0000
0010
0000
0100
0000
0010
0000
0001
0000
0010
0000
0100
0000
,
0010
1000
0100
0010
0001
0010
0100
0010
0100
0010
0001
0010
0100
0010
0100
1000
,
0100
0010
0100
0001
0010
0001
0010
0100
0010
0100
1000
0010
0100
0010
0001
0010
,
0100
0010
1000
0010
0100
0010
0001
0010
0100
0010
0001
0010
0100
0010
1000
0100
,
0010
0001
0010
0100
0010
0100
0010
0001
0010
0100
0010
0100
1000
0100
0010
0100
,
0001
0010
0001
0010
0100
0010
0100
1000
0010
0100
0010
0001
0010
0100
0010
1000
,
0010
0100
0001
0010
0100
0010
0001
0010
0100
0010
0100
1000
0010
0100
0001
0010
,
0001
0000
0010
0000
0100
0000
0010
0000
0100
0000
0010
0000
1000
0000
0100
0000
0010
0000
0001
0000
0010
0000
0100
0000
0010
0000
0001
0000
0010
0001
0100
1000
,
0010
0001
0100
0010
1000
0001
0100
0001
0010
1000
0100
0001
0010
1000
0100
0010
1001
0000
0010
0000
0100
0000
0010
0000
0001
0000
0010
0000
0100
0000
0010
0000
,
0001
0010
0100
0010
1000
0100
0010
0001
0010
0100
0010
0100
0010
0001
0010
0100
,
0010
0100
1000
0100
0010
0100
0001
0010
0001
0010
0100
0010
0100
1000
0010
0100
,
0010
0001
0010
0100
0010
1000
0010
0100
0010
0001
0010
0100
0010
0001
0010
0100
,
0010
1000
0100
0010
0001
0010
0100
0010
0100
0010
0001
0010
0100
0010
0100
1000
,
0100
0010
0100
0001
0010
0001
0010
0100
0010
0100
1000
0010
0100
0010
0001
0010
,
0100
0010
1000
0010
0100
0001
0010
0100
0010
0001
0010
0100
0010
0100
1000
0010
,
0100
0001
0010
0001
0010
0100
0010
0100
0011
1000
0100
0010
0101
0010
1000
0001
,
1100
0000
0010
0000
0001
0000
0010
0000
1100
0010
0001
0010
0100
0010
0001
0010
1200
0000
0010
0000
0001
0000
0010
0000
1000
0000
0010
0000
0001
0000
0010
0000
,
1320
0100
0001
0100
0001
0100
0001
0100
1030
0010
0001
0100
0011
1000
0100
0010
,
0101
0010
0100
1000
0110
0001
0010
0100
2010
0001
0100
0010
0001
0010
0100
0001
,
3110
0001
0010
0100
0011
1000
0100
0010
0201
0010
0001
0010
1000
0010
0001
0010
,
1301
0010
0001
0010
0100
1000
0100
0001
2010
0100
0010
0001
0010
0100
0010
0100
,
3012
0100
1000
0100
0010
0100
1000
0100
1013
0100
0010
0100
1001
0100
0010
0001
,
0110
1000
0100
0010
0101
0010
0100
1000
0011
0100
0010
0001
0110
0001
0010
0001
,
1100
0010
0100
1000
0011
0100
0010
0001
0210
0001
0010
1000
0010
0001
0010
1000
,
0310
0000
0001
0000
0100
0010
0001
0100
1000
0010
1000
0001
0100
0010
0100
0001
2010
0000
0100
0000
0010
0000
0001
0000
0010
0000
0100
0000
0010
0000
0001
0000
,
3120
0001
0100
1000
0100
0001
0100
1000
0131
0010
0001
0100
1010
0100
0010
0001
,
0110
1000
0100
0001
0110
1000
0001
0010
2001
0100
0010
0001
0010
0100
0010
0001
,
3100
0010
0001
0100
0010
0100
1000
0100
0012
0100
1000
0100
0010
0100
1000
0100
,
0013
0100
1000
0010
0101
0010
0001
0010
1200
0010
0001
0010
1000
0010
0001
1000
,
0321
0100
1000
0100
0001
0100
1000
0100
0031
0100
0010
0001
1100
0010
0001
0100
,
1000
0100
0010
0100
0001
0010
0100
0010
0001
0100
0010
0100
1000
0100
0010
0001
1100
0000
0000
0000
0011
0000
0000
0000
0110
0000
0000
0000
1100
0000
0000
0000
,
0110
0011
0110
1100
0011
0110
1100
0110
,
0012
0100
0010
0100
1103
0011
0110
0011
,
1100
0011
0110
1100
0011
0110
0011
0110
,
2100
0010
0100
0010
3011
0110
0110
1100
,
0110
0011
0110
1100
0011
0110
1100
0110
,
0012
0100
0010
0100
1103
0011
0110
0011
,
1100
0011
0110
1100
0011
0110
0011
0110
,
2100
0010
0001
0010
0100
0010
0001
0010
3100
0010
0001
0010
0100
0010
0001
0010
,
0100
0010
0001
0010
0100
0010
0001
0010
0100
0010
0001
0010
0100
0010
0001
0010
2200
0000
0000
0000
0000
0000
0000
0000
0000
0000
0000
0000
0000
0000
0000
0000
,
0000
0022
0000
0000
,
0000
0000
0000
0000
,
0000
0000
0000
0000
,
0000
0000
0000
0000
,
0000
0000
0000
0000
,
0000
0000
0000
0000
,
0000
0000
0000
0000
,
0000
0000
0000
3333
;
